Terre brûlée (1970) WEB-DL 1080p

null

INFORMATION FILM:
Origine: Grande-Bretagne
Réalisateur: Cornel Wilde
Acteur:  Nigel Davenport, Jean Wallace, John Hamill…
Genre: Drame, Science-Fiction
Année de sortie: 1970
Durée: 1h37min
Titre original: No Blade of Grass
https://www.imdb.com/title/tt0066154/

SYNOPSIS:
Un nouveau et étrange virus qui attaque les plantes apparaît. Il entraîne le monde dans la famine et le chaos. L’architecte John, accompagné de sa famille et de ses amis, s’échappe de Londres dans l’espoir de trouver refuge dans la ferme de son frère. Commence alors un voyage des plus dangereux et éprouvants.

INFORMATION UPLOAD:
Qualité: WEB-DL 1080p
Résolution: 1912×792
Codec: H264 / MKV
Débit vidéo: 4’554 M/bs
Frame rate: 23.976 FPS
Audio 1 : Français / Dolby Digital 2.0 @ 192 kbps
Audio 2 : English / Dolby Digital @ 192 kbps
Sous-titres : Français complets @ SRT
Chapitres: Oui
Poids: 3.36 Go
Taille multi: (WinRAR) 4x 900Mo + 1x 13.2Mo

Materiel audio et sous-titres ripé par: Papy Sevenko (sources inconnu) et fourni par: Ginodu94
WEB-DL fourni par QWERTZ (source iTunes CA)

VOIR NFO :
Format                                   : Matroska
Format version                           : Version 4 / Version 2
File size                                : 3.36 GiB
Duration                                 : 1 h 37 min
Overall bit rate                         : 4 940 kb/s
Encoded date                             : UTC 2019-06-28 22:34:50
Writing application                      : mkvmerge v33.1.0 ('Primrose') 64-bit
Writing library                          : libebml v1.3.7 + libmatroska v1.5.0

Video
ID                                       : 1
Format                                   : AVC
Format/Info                              : Advanced Video Codec
Format profile                           : High@L4
Format settings                          : CABAC / 5 Ref Frames
Format settings, CABAC                   : Yes
Format settings, RefFrames               : 5 frames
Codec ID                                 : V_MPEG4/ISO/AVC
Duration                                 : 1 h 37 min
Bit rate                                 : 4 554 kb/s
Width                                    : 1 912 pixels
Height                                   : 792 pixels
Display aspect ratio                     : 2.40:1
Frame rate mode                          : Constant
Frame rate                               : 23.976 (23976/1000) FPS
Color space                              : YUV
Chroma subsampling                       : 4:2:0
Bit depth                                : 8 bits
Scan type                                : Progressive
Bits/(Pixel*Frame)                       : 0.125
Stream size                              : 3.10 GiB (92%)
Default                                  : Yes
Forced                                   : No
Color range                              : Limited
Color primaries                          : BT.709
Transfer characteristics                 : BT.709
Matrix coefficients                      : BT.709

Audio #1
ID                                       : 2
Format                                   : AC-3
Format/Info                              : Audio Coding 3
Codec ID                                 : A_AC3
Duration                                 : 1 h 37 min
Bit rate mode                            : Constant
Bit rate                                 : 192 kb/s
Channel(s)                               : 2 channels
Channel positions                        : Front: L R
Sampling rate                            : 48.0 kHz
Frame rate                               : 31.250 FPS (1536 SPF)
Bit depth                                : 16 bits
Compression mode                         : Lossy
Delay relative to video                  : -200 ms
Stream size                              : 134 MiB (4%)
Language                                 : French
Service kind                             : Complete Main
Default                                  : Yes
Forced                                   : No

Audio #2
ID                                       : 3
Format                                   : AC-3
Format/Info                              : Audio Coding 3
Codec ID                                 : A_AC3
Duration                                 : 1 h 37 min
Bit rate mode                            : Constant
Bit rate                                 : 192 kb/s
Channel(s)                               : 2 channels
Channel positions                        : Front: L R
Sampling rate                            : 48.0 kHz
Frame rate                               : 31.250 FPS (1536 SPF)
Bit depth                                : 16 bits
Compression mode                         : Lossy
Delay relative to video                  : -200 ms
Stream size                              : 134 MiB (4%)
Language                                 : English
Service kind                             : Complete Main
Default                                  : No
Forced                                   : No

Text
ID                                       : 4
Format                                   : UTF-8
Codec ID                                 : S_TEXT/UTF8
Codec ID/Info                            : UTF-8 Plain Text
Duration                                 : 1 h 33 min
Bit rate                                 : 51 b/s
Count of elements                        : 844
Stream size                              : 35.3 KiB (0%)
Language                                 : French
Default                                  : No
Forced                                   : No

Menu
00:00:00.000                             : en:Chapter 1
00:10:00.600                             : en:Chapter 2
00:20:01.200                             : en:Chapter 3
00:30:01.800                             : en:Chapter 4
00:40:02.400                             : en:Chapter 5
00:50:03.000                             : en:Chapter 6
01:00:03.600                             : en:Chapter 7
01:10:04.200                             : en:Chapter 8
01:20:04.800                             : en:Chapter 9
01:30:05.400                             : en:Chapter 10

SCREENSHOT:
imagebam.com  imagebam.com
imagebam.com  imagebam.com
imagebam.com  imagebam.com

Bande annonce: VO

(Lien premium)
TELECHARGEMENT

(Lien multi)
TELECHARGEMENT

18 commentaires à propos de “Terre brûlée (1970) WEB-DL 1080p

  1. Bravo ma poule, ta assuré ta race hihihi

    J’en revenais pas qd tu m’a parlé de cet version Itunes, moi qui recherchait le dvd9 dispo sur un site ou l’hebergeur était une plaie pour récuperé les liens.

    Toi tu nous trouve le web dl..

    J’avais un dvdrip datant de 2015 retrouvé sur un de mes nombreux dde, extrait vf et sub.
    Au passage je remercie l’ami (Marty Mc Fly) qui en avait fait le rpk car rip tagué avec son pseudo, donc merci a lui.

    Merci donc ma poule pour se rpk fort bien venue, de se film pas mal du tout et introuvable dans cette qualité HD.
    Grosse exclu.

    • Hello !
      Le repack de 2015 venait peut-être de chez moi, j’avais fait un remux (avec resynchro) du premier repack de Marty. Pour info, à l’origine, la VF à été fourni par Papy Sevenko. Il voulait rester dans l’ombre à l’époque, mais depuis y’a prescription !
      Merci pour cette belle exclue en 1080p !

      • Merci cher Humungus pour ses précisions, QWERTZ fera la MAJ de la personne qui a fournit la vf, en l’occurrence l’ami « Papy Senvenko » merci a lui.

        Tu te doute que si j’avais eu d’autres infos sur le rpk que j’avais en lien depuis ces années, je les aurait donné a l’ami Qwertz pour qu’il précise la chose sur sa preez.

        Mais tu l’a fait pour nous en complément, et perso, je t’en remercie.

        Que ce soit chez Qwertz ou chez Buddy, on aime tjrs donné les infos de qui a fait quoi, quand on les connais bien sur, c’est le minimun je trouve.

  2. J’attendais moi aussi une belle version HD depuis longtemps, chose faite ici, la classe!
    Merci beaucoup à toi pour ce partage, le boulot… Merci à Papy Senvenko pour la vf et à Gino, Humungus et Marty Mc Fly pour les diverses màj.

  3. Quand il y a de la bonne SF des seventies je suis toujours partant, d’autant plus quand je ne connais pas ^^
    Un grand merci à Qwertz, Papy Sevenko et à Gino!

  4. merci qwertz pour ce film que j’ai regarder hier , j’ai trouver que le film a subit un curieux montage ya un moment j’allait l’arreter car je pigé plus rien , ensuite en continuant le film j’ai apprécié l’aspect délirant du film , je suis un tres grand admirateur du cinéma post apocalyptique et aussi du cinéma des années 70 , je conserve ce film pour son étrangeté

  5. Un grand MERCI pour le partage de cette appétissante pépite que je vais donc pouvoir découvrir dans des conditions optimales grâce à vous !!

Laisser un commentaire

Votre adresse de messagerie ne sera pas publiée.