Trainspotting (1996) – DVD 720p – Full Screen version 1:33

null

INFORMATION FILM:
Origine: Grande-Bretagne
Réalisateur: Danny Boyle
Acteur:  Ewan McGregor, Ewen Bremner, Jonny Lee Miller, Robert Carlyle, Kelly Macdonald …
Genre: Drame
Année de sortie: 1996
Durée: 1h34min
https://www.imdb.com/title/tt0117951

SYNOPSIS:
Les aventures tragi-comiques de Mark Renton, junkie d’Edimbourg, qui va tenter de se séparer de sa bande de copains, losers, menteurs, psychopathes et voleurs.

INFORMATION UPLOAD:
Qualité: DVD 720p upscalé
Résolution: 960×720
Codec: x264 / MKV
Débit vidéo: 6’063 M/bs
Frame rate: 23.976 FPS
Audio 1 : Français / DTS 5.1 @ 768 kbps (BluRay)
Audio 2 : English / DTS 5.1 @ 1509 kbps (BluRay)
Sous-titres 1 : Français forcés @ SRT
Sous-titres 2 : Français complets @ SRT
Chapitres: Oui
Poids: 5.46 Go
Taille multi: (WinRAR) 6x 474Mo + 1x 13.2Mo + 5% recovery

VOIR NFO :
Format                                   : Matroska
Format version                           : Version 4 / Version 2
File size                                : 5.46 GiB
Duration                                 : 1 h 33 min
Overall bit rate mode                    : Variable
Overall bit rate                         : 8 341 kb/s
Encoded date                             : UTC 2019-07-10 07:13:55
Writing application                      : mkvmerge v33.1.0 ('Primrose') 64-bit
Writing library                          : libebml v1.3.7 + libmatroska v1.5.0

Video
ID                                       : 1
Format                                   : AVC
Format/Info                              : Advanced Video Codec
Format profile                           : High@L4.1
Format settings                          : CABAC / 12 Ref Frames
Format settings, CABAC                   : Yes
Format settings, RefFrames               : 12 frames
Codec ID                                 : V_MPEG4/ISO/AVC
Duration                                 : 1 h 33 min
Bit rate mode                            : Variable
Bit rate                                 : 6 063 kb/s
Maximum bit rate                         : 62.5 Mb/s
Width                                    : 960 pixels
Height                                   : 720 pixels
Display aspect ratio                     : 4:3
Frame rate mode                          : Constant
Frame rate                               : 23.976 (24000/1001) FPS
Color space                              : YUV
Chroma subsampling                       : 4:2:0
Bit depth                                : 8 bits
Scan type                                : Progressive
Bits/(Pixel*Frame)                       : 0.366
Stream size                              : 3.97 GiB (73%)
Default                                  : Yes
Forced                                   : No
Color range                              : Limited
Color primaries                          : BT.709
Transfer characteristics                 : BT.709
Matrix coefficients                      : BT.709

Audio #1
ID                                       : 2
Format                                   : DTS
Format/Info                              : Digital Theater Systems
Codec ID                                 : A_DTS
Duration                                 : 1 h 33 min
Bit rate mode                            : Constant
Bit rate                                 : 768 kb/s
Channel(s)                               : 6 channels
Channel positions                        : Front: L C R, Side: L R, LFE
Sampling rate                            : 48.0 kHz
Frame rate                               : 93.750 FPS (512 SPF)
Bit depth                                : 24 bits
Compression mode                         : Lossy
Delay relative to video                  : -200 ms
Stream size                              : 515 MiB (9%)
Language                                 : French
Default                                  : Yes
Forced                                   : No

Audio #2
ID                                       : 3
Format                                   : DTS
Format/Info                              : Digital Theater Systems
Codec ID                                 : A_DTS
Duration                                 : 1 h 33 min
Bit rate mode                            : Constant
Bit rate                                 : 1 509 kb/s
Channel(s)                               : 6 channels
Channel positions                        : Front: L C R, Side: L R, LFE
Sampling rate                            : 48.0 kHz
Frame rate                               : 93.750 FPS (512 SPF)
Bit depth                                : 24 bits
Compression mode                         : Lossy
Delay relative to video                  : -200 ms
Stream size                              : 1 012 MiB (18%)
Language                                 : English
Default                                  : No
Forced                                   : No

Text #1
ID                                       : 4
Format                                   : UTF-8
Codec ID                                 : S_TEXT/UTF8
Codec ID/Info                            : UTF-8 Plain Text
Duration                                 : 1 h 31 min
Bit rate                                 : 1 b/s
Count of elements                        : 34
Stream size                              : 891 Bytes (0%)
Language                                 : French
Default                                  : Yes
Forced                                   : Yes

Text #2
ID                                       : 5
Format                                   : UTF-8
Codec ID                                 : S_TEXT/UTF8
Codec ID/Info                            : UTF-8 Plain Text
Duration                                 : 1 h 30 min
Bit rate                                 : 59 b/s
Count of elements                        : 1041
Stream size                              : 39.4 KiB (0%)
Language                                 : French
Default                                  : No
Forced                                   : No

SCREENSHOT:
Haut = BluRay
Bas = DVD
imagebam.com
imagebam.com
imagebam.com
imagebam.com
imagebam.com
imagebam.com

(Lien premium + Multi)
TELECHARGEMENT

 

3 commentaires à propos de “Trainspotting (1996) – DVD 720p – Full Screen version 1:33

  1. Ravi, Qwertz, que tu continues à nous offrir ces belles versions de notre histoire du cinéma. Et ça donne systématiquement envie de les revoir (comme celui-ci, réjouissant) ou de les découvrir. Merci

Laisser un commentaire

Votre adresse de messagerie ne sera pas publiée.