The Big Lebowski (1998) DVD 720p – Open Matte

null

INFORMATION FILM:
Origine: U.S.A
Réalisateur: Joel Coen, Ethan Coen
Acteur:  Jeff Bridges, Julianne Moore, John Goodman, Steve Buscemi, Philip Seymour Hoffman …
Genre: Comédie, Policier
Année de sortie: 1998
Durée: 1h57min
https://www.imdb.com/title/tt0118715/

SYNOPSIS:
Jeff Lebowski, prénommé le Duc, est un paresseux qui passe son temps à boire des coups avec son copain Walter et à jouer au bowling, jeu dont il est fanatique. Un jour deux malfrats le passent à tabac. Il semblerait qu’un certain Jackie Treehorn veuille récupérer une somme d’argent que lui doit la femme de Jeff. Seulement Lebowski n’est pas marié. C’est une méprise, le Lebowski recherché est un millionnaire de Pasadena. Le Duc part alors en quête d’un dédommagement auprès de son richissime homonyme..

INFORMATION UPLOAD:
Qualité: DVD 720p upscalé
Résolution: 984×720
Codec: x264 / MKV
Débit vidéo: 6’063 M/bs
Frame rate: 23.976 FPS
Audio 1 : Français (VFF) / DTS 5.1 @ 768 kbps (BluRay)
Audio 2 : English / DTS 5.1 @ 1509 kbps (BluRay)
Sous-titres 1 : Français forcés @ SRT
Sous-titres 2 : Français complets @ SRT
Chapitres: Oui
Poids: 6.57 Go
Taille multi: (WinRAR) 7x 900Mo + 1x 758Mo + 5% recovery

VOIR NFO :
Format                                   : Matroska
Format version                           : Version 4 / Version 2
File size                                : 6.57 GiB
Duration                                 : 1 h 57 min
Overall bit rate mode                    : Variable
Overall bit rate                         : 8 000 kb/s
Encoded date                             : UTC 2019-07-28 13:29:16
Writing application                      : mkvmerge v33.1.0 ('Primrose') 64-bit
Writing library                          : libebml v1.3.7 + libmatroska v1.5.0

Video
ID                                       : 1
Format                                   : AVC
Format/Info                              : Advanced Video Codec
Format profile                           : High@L4.1
Format settings                          : CABAC / 11 Ref Frames
Format settings, CABAC                   : Yes
Format settings, RefFrames               : 11 frames
Codec ID                                 : V_MPEG4/ISO/AVC
Duration                                 : 1 h 57 min
Bit rate mode                            : Variable
Bit rate                                 : 5 720 kb/s
Maximum bit rate                         : 62.5 Mb/s
Width                                    : 984 pixels
Height                                   : 720 pixels
Display aspect ratio                     : 4:3
Frame rate mode                          : Constant
Frame rate                               : 23.976 (24000/1001) FPS
Color space                              : YUV
Chroma subsampling                       : 4:2:0
Bit depth                                : 8 bits
Scan type                                : Progressive
Bits/(Pixel*Frame)                       : 0.337
Stream size                              : 4.69 GiB (71%)
Default                                  : Yes
Forced                                   : No
Color range                              : Limited
Color primaries                          : BT.709
Transfer characteristics                 : BT.709
Matrix coefficients                      : BT.709

Audio #1
ID                                       : 2
Format                                   : DTS
Format/Info                              : Digital Theater Systems
Codec ID                                 : A_DTS
Duration                                 : 1 h 57 min
Bit rate mode                            : Constant
Bit rate                                 : 768 kb/s
Channel(s)                               : 6 channels
Channel positions                        : Front: L C R, Side: L R, LFE
Sampling rate                            : 48.0 kHz
Frame rate                               : 93.750 FPS (512 SPF)
Bit depth                                : 24 bits
Compression mode                         : Lossy
Delay relative to video                  : 100 ms
Stream size                              : 645 MiB (10%)
Language                                 : French
Default                                  : Yes
Forced                                   : No

Audio #2
ID                                       : 3
Format                                   : DTS
Format/Info                              : Digital Theater Systems
Codec ID                                 : A_DTS
Duration                                 : 1 h 57 min
Bit rate mode                            : Constant
Bit rate                                 : 1 509 kb/s
Channel(s)                               : 6 channels
Channel positions                        : Front: L C R, Side: L R, LFE
Sampling rate                            : 48.0 kHz
Frame rate                               : 93.750 FPS (512 SPF)
Bit depth                                : 24 bits
Compression mode                         : Lossy
Delay relative to video                  : 50 ms
Stream size                              : 1.24 GiB (19%)
Language                                 : English
Default                                  : No
Forced                                   : No

Text #1
ID                                       : 4
Format                                   : UTF-8
Codec ID                                 : S_TEXT/UTF8
Codec ID/Info                            : UTF-8 Plain Text
Duration                                 : 1 h 40 min
Bit rate                                 : 0 b/s
Count of elements                        : 15
Stream size                              : 402 Bytes (0%)
Language                                 : French
Default                                  : Yes
Forced                                   : Yes

Text #2
ID                                       : 5
Format                                   : UTF-8
Codec ID                                 : S_TEXT/UTF8
Codec ID/Info                            : UTF-8 Plain Text
Duration                                 : 1 h 51 min
Bit rate                                 : 73 b/s
Count of elements                        : 1664
Stream size                              : 60.5 KiB (0%)
Language                                 : French
Default                                  : No
Forced                                   : No

SCREENSHOT:
Capture du haut: 1.85:1 = BluRay
Capture du bas: 1.33:1  = DVD Fullscreen edition

Bande annonce VOSTFR:

(Lien premium + Multi)
TELECHARGEMENT

 

7 commentaires à propos de “The Big Lebowski (1998) DVD 720p – Open Matte

Laisser un commentaire

Votre adresse de messagerie ne sera pas publiée.