The Cave (2005) WEBRip 1080p – Open Matte

null

INFORMATION FILM:
Origine: U.S.A
Réalisateur: Bruce Hunt
Acteur:  Cole Hauser, Eddie Cibrian, Rick Ravanello …
Genre: Fantastique, Action
Année de sortie: 2005
Durée: 1h37min
https://www.imdb.com/title/tt0402901/

SYNOPSIS:
Au coeur d’une forêt roumaine, dans les ruines d’une abbaye du XIIIe siècle, des scientifiques découvrent l’entrée d’un labyrinthe de grottes souterraines. Ils engagent des spécialistes pour les aider à explorer cet univers mystérieux.
Jack et son frère Tyler dirigent la meilleure équipe de spéléologues plongeurs du monde. Ils en ont déjà vu beaucoup, mais ce qui les attend au fond, loin sous la terre, dépasse leurs pires cauchemars…

INFORMATION UPLOAD:

Qualité: WEBRip 1080p (AMAZON)
Résolution: 1920×1080
Codec: x264 / MKV
Débit vidéo: 10.9 Mb/s
Frame rate: 23.976 FPS
Audio 1 : Français (VFF) / Dolby Digital 5.1 @ 448 kbps (DVD – Yggtorrent)
Audio 2 : English / DTS 5.1 @ 1509 kbps (BluRay – HDCLUB)
Sous-titres 1 : Français forcés @ SRT
Sous-titres 2 : Français complets @ SRT
Chapitres: Oui
Poids: 8.75 Go
Taille multi: (WinRAR) 10x 900Mo + 1x 414Mo + 5% recovery

VOIR NFO :
Format                                   : Matroska
Format version                           : Version 4 / Version 2
File size                                : 8.76 GiB
Duration                                 : 1 h 37 min
Overall bit rate mode                    : Variable
Overall bit rate                         : 12.9 Mb/s
Encoded date                             : UTC 2019-08-04 14:17:54
Writing application                      : mkvmerge v33.1.0 ('Primrose') 64-bit
Writing library                          : libebml v1.3.7 + libmatroska v1.5.0

Video
ID                                       : 1
Format                                   : AVC
Format/Info                              : Advanced Video Codec
Format profile                           : High@L4.1
Format settings                          : CABAC / 4 Ref Frames
Format settings, CABAC                   : Yes
Format settings, RefFrames               : 4 frames
Format settings, GOP                     : M=2, N=15
Codec ID                                 : V_MPEG4/ISO/AVC
Duration                                 : 1 h 37 min
Bit rate mode                            : Variable
Bit rate                                 : 10.9 Mb/s
Maximum bit rate                         : 4 168 kb/s
Width                                    : 1 920 pixels
Height                                   : 1 080 pixels
Display aspect ratio                     : 16:9
Frame rate mode                          : Constant
Frame rate                               : 23.976 (24000/1001) FPS
Color space                              : YUV
Chroma subsampling                       : 4:2:0
Bit depth                                : 8 bits
Scan type                                : Progressive
Bits/(Pixel*Frame)                       : 0.220
Stream size                              : 7.43 GiB (85%)
Default                                  : Yes
Forced                                   : No
Color range                              : Limited
Color primaries                          : BT.709
Transfer characteristics                 : BT.709
Matrix coefficients                      : BT.709

Audio #1
ID                                       : 2
Format                                   : AC-3
Format/Info                              : Audio Coding 3
Codec ID                                 : A_AC3
Duration                                 : 1 h 37 min
Bit rate mode                            : Constant
Bit rate                                 : 448 kb/s
Channel(s)                               : 6 channels
Channel positions                        : Front: L C R, Side: L R, LFE
Sampling rate                            : 48.0 kHz
Frame rate                               : 31.250 FPS (1536 SPF)
Bit depth                                : 16 bits
Compression mode                         : Lossy
Delay relative to video                  : -200 ms
Stream size                              : 311 MiB (3%)
Language                                 : French
Service kind                             : Complete Main
Default                                  : Yes
Forced                                   : No

Audio #2
ID                                       : 3
Format                                   : DTS
Format/Info                              : Digital Theater Systems
Codec ID                                 : A_DTS
Duration                                 : 1 h 37 min
Bit rate mode                            : Constant
Bit rate                                 : 1 509 kb/s
Channel(s)                               : 6 channels
Channel positions                        : Front: L C R, Side: L R, LFE
Sampling rate                            : 48.0 kHz
Frame rate                               : 93.750 FPS (512 SPF)
Bit depth                                : 24 bits
Compression mode                         : Lossy
Delay relative to video                  : -196 ms
Stream size                              : 1.02 GiB (12%)
Language                                 : English
Default                                  : No
Forced                                   : No

Text #1
ID                                       : 4
Format                                   : UTF-8
Codec ID                                 : S_TEXT/UTF8
Codec ID/Info                            : UTF-8 Plain Text
Duration                                 : 4 s 600 ms
Bit rate                                 : 66 b/s
Count of elements                        : 1
Stream size                              : 38.0 Bytes (0%)
Title                                    : Forces
Language                                 : French
Default                                  : Yes
Forced                                   : No

Text #2
ID                                       : 5
Format                                   : UTF-8
Codec ID                                 : S_TEXT/UTF8
Codec ID/Info                            : UTF-8 Plain Text
Duration                                 : 1 h 31 min
Bit rate                                 : 41 b/s
Count of elements                        : 865
Stream size                              : 27.6 KiB (0%)
Title                                    : Complets
Language                                 : French
Default                                  : No
Forced                                   : No

Menu
00:00:00.000                             : :Start
00:06:49.867                             : :"Where's the cave?"
00:10:57.865                             : :Cave Divers
00:16:57.891                             : :To the Carpathians
00:23:22.859                             : :The Plan
00:30:50.890                             : :Descent
00:37:44.887                             : :Scouts
00:42:09.735                             : :In the Water
00:49:31.176                             : :Chewed
00:55:25.488                             : :"We are the rescue team."
01:00:03.349                             : :Jack Attack
01:07:57.114                             : :Back in the Food Chain
01:14:44.271                             : :A Current
01:19:22.090                             : :A Serious Death Wish
01:26:25.513                             : :The Drop
01:29:32.158                             : :"It's over."


SCREENSHOT:
Capture du haut: 2.35:1 = BluRay
Capture du bas: 1.77:1  = WEBRip






(Lien premium + Multi)
TELECHARGEMENT

 

11 commentaires à propos de “The Cave (2005) WEBRip 1080p – Open Matte

  1. salut a toi merci a toi pour ce repack en open matte, je te le prend quand meme malgré le fait que je l’ai moi meme capturé a la télé francaise aussi en open matte et avec les écrits en francais dedans car master francais totale et donc plus besoin de forced, si tu veux je peux meme te lenvoyer eventuellement pour que tu jette un oeil dessus et voir si il vaut le coup detre mis en supplement du tient ou pas, c’était un beau plus je trouvais, svp merci bcp, cordialement

  2. Wouah, BRAVO pour le boulot magistral que vous faites ici et dont vous nous faites généreusement profiter ! Ce Blog va devenir mon nouvel Eldorado, je le sens !!

Laisser un commentaire

Votre adresse de messagerie ne sera pas publiée.