Retour vers le Futur (1985) 720p Full Screen

null

INFORMATION FILM:
Origine: U.S.A
Réalisateur: Robert Zemeckis
Acteur:  Michael J. Fox, Christopher Lloyd, Lea Thompson …
Genre: Science fiction, Aventure
Année de sortie: 1985
Durée: 1h56min
https://www.imdb.com/title/tt0088763/

SYNOPSIS:
1985. Le jeune Marty McFly mène une existence anonyme auprès de sa petite amie Jennifer, seulement troublée par sa famille en crise et un proviseur qui serait ravi de l’expulser du lycée. Ami de l’excentrique professeur Emmett Brown, il l’accompagne un soir tester sa nouvelle expérience : le voyage dans le temps via une DeLorean modifiée. La démonstration tourne mal : des trafiquants d’armes débarquent et assassinent le scientifique. Marty se réfugie dans la voiture et se retrouve transporté en 1955. Là, il empêche malgré lui la rencontre de ses parents, et doit tout faire pour les remettre ensemble, sous peine de ne pouvoir exister…

INFORMATION UPLOAD:

Qualité: DVD 720p Upscalé
Résolution: 984×720
Codec: x264 / MKV
Débit vidéo: 6’502 Kb/s
Frame rate: 23.976 FPS
Audio 1 : Français (VFF) / FLAC 2.0 @ 603 kbps (LaserDisc) *
Audio 2 : Français (VFF) / DTS 5.1 @ 768 kbps (BluRay)
Audio 3 : English / DTS 5.1 @ 1509 kbps (BluRay)
Sous-titres 1 : Français forcés @ SRT
Sous-titres 2 : Français complets @ SRT
Chapitres: Oui
Poids: 7.61 Go
Taille multi: (WinRAR) 9x 900Mo + 1x 81.8Mo + 5% recovery

* Ripé par Suspi et fourni par Ginodu94

VOIR NFO :
Format                                   : Matroska
Format version                           : Version 4 / Version 2
File size                                : 7.61 GiB
Duration                                 : 1 h 56 min
Overall bit rate mode                    : Variable
Overall bit rate                         : 9 384 kb/s
Movie name                               : Retour vers le Futur 1985
Encoded date                             : UTC 2019-08-11 09:28:42
Writing application                      : mkvmerge v36.0.0 ('Is That Jazz?') 64-bit
Writing library                          : libebml v1.3.9 + libmatroska v1.5.2

Video
ID                                       : 1
Format                                   : AVC
Format/Info                              : Advanced Video Codec
Format profile                           : High@L4.1
Format settings                          : CABAC / 11 Ref Frames
Format settings, CABAC                   : Yes
Format settings, RefFrames               : 11 frames
Codec ID                                 : V_MPEG4/ISO/AVC
Duration                                 : 1 h 56 min
Bit rate mode                            : Variable
Bit rate                                 : 6 502 kb/s
Maximum bit rate                         : 62.5 Mb/s
Width                                    : 984 pixels
Height                                   : 720 pixels
Display aspect ratio                     : 4:3
Frame rate mode                          : Constant
Frame rate                               : 23.976 (23976/1000) FPS
Original frame rate                      : 23.976 (24000/1001) FPS
Color space                              : YUV
Chroma subsampling                       : 4:2:0
Bit depth                                : 8 bits
Scan type                                : Progressive
Bits/(Pixel*Frame)                       : 0.383
Stream size                              : 5.27 GiB (69%)
Writing library                          : x264 core 157 r2935 545de2f
Encoding settings                        : cabac=1 / ref=11 / deblock=1:-1:-1 /
 analyse=0x3:0x113 / me=umh / subme=10 / psy=1 / psy_rd=1.00:0.15 / mixed_ref=1
 / me_range=24 / chroma_me=1 / trellis=2 / 8x8dct=1 / cqm=0 / deadzone=21,11 /
 fast_pskip=1 / chroma_qp_offset=-3 / threads=12 / lookahead_threads=1 /
 sliced_threads=0 / nr=0 / decimate=1 / interlaced=0 / bluray_compat=0 /
 constrained_intra=0 / bframes=3 / b_pyramid=2 / b_adapt=1 / b_bias=0 /
 direct=3 / weightb=1 / open_gop=0 / weightp=2 / keyint=240 / keyint_min=24 
/ scenecut=40 / intra_refresh=0 / rc_lookahead=60 / rc=2pass / mbtree=1 /
 bitrate=6502 / ratetol=1.0 / qcomp=0.60 / qpmin=0 / qpmax=69 / qpstep=4 /
 cplxblur=20.0 / qblur=0.5 / vbv_maxrate=62500 / vbv_bufsize=62500 /
 nal_hrd=vbr / filler=0 / ip_ratio=1.40 / aq=1:1.00
Default                                  : Yes
Forced                                   : No
Color range                              : Limited
Color primaries                          : BT.709
Transfer characteristics                 : BT.709
Matrix coefficients                      : BT.709

Audio #1
ID                                       : 2
Format                                   : FLAC
Format/Info                              : Free Lossless Audio Codec
Codec ID                                 : A_FLAC
Duration                                 : 1 h 56 min
Bit rate mode                            : Variable
Bit rate                                 : 603 kb/s
Channel(s)                               : 2 channels
Sampling rate                            : 44.1 kHz
Frame rate                               : 10.767 FPS (4096 SPF)
Bit depth                                : 16 bits
Stream size                              : 501 MiB (6%)
Title                                    : LaserDisc
Writing library                          : libFLAC 1.3.2 (UTC 2017-01-01)
Language                                 : French
Default                                  : Yes
Forced                                   : No

Audio #2
ID                                       : 3
Format                                   : DTS
Format/Info                              : Digital Theater Systems
Codec ID                                 : A_DTS
Duration                                 : 1 h 56 min
Bit rate mode                            : Constant
Bit rate                                 : 768 kb/s
Channel(s)                               : 6 channels
Channel positions                        : Front: L C R, Side: L R, LFE
Sampling rate                            : 48.0 kHz
Frame rate                               : 93.750 FPS (512 SPF)
Bit depth                                : 24 bits
Compression mode                         : Lossy
Stream size                              : 638 MiB (8%)
Title                                    : BluRay
Language                                 : French
Default                                  : No
Forced                                   : No

Audio #3
ID                                       : 4
Format                                   : DTS
Format/Info                              : Digital Theater Systems
Codec ID                                 : A_DTS
Duration                                 : 1 h 56 min
Bit rate mode                            : Constant
Bit rate                                 : 1 509 kb/s
Channel(s)                               : 6 channels
Channel positions                        : Front: L C R, Side: L R, LFE
Sampling rate                            : 48.0 kHz
Frame rate                               : 93.750 FPS (512 SPF)
Bit depth                                : 24 bits
Compression mode                         : Lossy
Stream size                              : 1.22 GiB (16%)
Title                                    : BluRay
Language                                 : English
Default                                  : No
Forced                                   : No

Text #1
ID                                       : 5
Format                                   : UTF-8
Codec ID                                 : S_TEXT/UTF8
Codec ID/Info                            : UTF-8 Plain Text
Duration                                 : 1 h 49 min
Bit rate                                 : 1 b/s
Count of elements                        : 47
Stream size                              : 1.49 KiB (0%)
Title                                    : Forces
Language                                 : French
Default                                  : Yes
Forced                                   : Yes

Text #2
ID                                       : 6
Format                                   : UTF-8
Codec ID                                 : S_TEXT/UTF8
Codec ID/Info                            : UTF-8 Plain Text
Duration                                 : 1 h 50 min
Bit rate                                 : 62 b/s
Count of elements                        : 1301
Stream size                              : 50.3 KiB (0%)
Title                                    : Complets
Language                                 : French
Default                                  : No
Forced                                   : No

Menu
00:00:00.024                             : en:00:00:00.000
00:04:12.469                             : en:00:04:13.545
00:06:46.206                             : en:00:06:47.282
00:11:44.170                             : en:00:11:45.246
00:18:03.090                             : en:00:18:04.166
00:28:11.198                             : en:00:28:12.274
00:31:29.604                             : en:00:31:30.680
00:38:39.617                             : en:00:38:40.693
00:41:21.237                             : en:00:41:22.313
00:47:52.294                             : en:00:47:53.370
00:55:52.065                             : en:00:55:53.141
00:58:48.784                             : en:00:58:49.860
01:05:15.712                             : en:01:05:16.788
01:16:39.228                             : en:01:16:40.304
01:20:13.567                             : en:01:20:14.643
01:27:22.245                             : en:01:27:23.321
01:31:10.974                             : en:01:31:12.050
01:41:39.477                             : en:01:41:40.553
01:46:40.361                             : en:01:46:41.437
01:51:23.435                             : en:01:51:24.511
01:55:58.168                             : en:01:55:59.244
01:55:59.669                             : en:01:56:00.745

SCREENSHOT:
Capture du haut: Ratio 1.85:1 = BluRay
Capture du bas: Ratio 1.33:1  = DVD Full Screen edition (2002)

(Lien premium + Multi)
TELECHARGEMENT

 

3 commentaires à propos de “Retour vers le Futur (1985) 720p Full Screen

  1. excellent cette idée de transformer un dvd en film 720p l’upscaling que tu utilise est très bon et ce repack permet de profiter de ce classique dans un autre format la bs laserdisc est vraiment excellente bref que du bon j’espere que tu compte faire cette trilogie dvd upscale 720p

Laisser un commentaire

Votre adresse de messagerie ne sera pas publiée.